<?xml version="1.0" standalone="no"?>
<!DOCTYPE svg PUBLIC "-//W3C//DTD SVG 1.1//EN" "http://www.w3.org/Graphics/SVG/1.1/DTD/svg11.dtd" >
<svg xmlns="http://www.w3.org/2000/svg">
<metadata>
<json>
<![CDATA[
{
	"fontFamily": "icomoon",
	"majorVersion": 1,
	"minorVersion": 0,
	"description": "Font generated by IcoMoon.",
	"version": "Version 1.0",
	"fontId": "icomoon",
	"psName": "icomoon",
	"subFamily": "Regular",
	"fullName": "icomoon"
}
]]>
</json>
</metadata>
<defs>
<font id="icomoon" horiz-adv-x="1024">
<font-face units-per-em="1024" ascent="960" descent="-64" />
<missing-glyph horiz-adv-x="1024" />
<glyph unicode="&#x20;" horiz-adv-x="512" d="" />
<glyph unicode="&#xe412;" glyph-name="p-radio" data-tags="p-radio" d="M320 191.957c70.691 0 128 57.306 128 128 0 70.691-57.309 128-128 128s-128-57.309-128-128c0-70.694 57.308-128 128-128zM960 639.957h-722.112l509.504 194.113c16.576 6.272 24.832 24.768 18.496 41.344-6.272 16.576-24.768 24.832-41.28 18.496l-672-256.001c-0.192-0.128-0.32-0.256-0.512-0.384-29.376-5.76-52.096-30.528-52.096-61.568v-512c0-35.328 28.736-64 64-64h896c35.328 0 64 28.672 64 64v512c0 35.264-28.672 64-64 64zM320 127.957c-105.856 0-192 86.144-192 192s86.144 192 192 192c105.856 0 192-86.144 192-192s-86.144-192-192-192zM896 127.957h-256v64h256v-64zM896 255.957h-256v64h256v-64zM896 383.957h-256v64h256v-64z" />
<glyph unicode="&#xe433;" glyph-name="door" data-tags="door" d="M180 236c0-33.076 26.924-60 60-60s60 26.924 60 60h-120zM997.632 546.788l-386.842 386.844c-16.994 16.992-39.61 26.368-63.634 26.368h-457.156c-49.628 0-90-40.372-90-90v-844c0-49.628 40.372-90 90-90h482c11.368 0 21.738 6.416 26.836 16.582 68.876 137.812 209.392 223.418 363.494 223.418h31.67c16.582 0 30 13.418 30 30v277.156c0 24.024-9.376 46.64-26.368 63.632zM360 236c0-66.182-53.818-120-120-120s-120 53.818-120 120v30c0 16.582 13.418 30 30 30h180c16.582 0 30-13.418 30-30v-30zM874 418h-724c-16.582 0-30 13.418-30 30v362c0 16.582 13.418 30 30 30h372.284c7.968 0 15.586-3.164 21.21-8.79l351.716-351.716c16.078-16.076 12.046-61.494-21.21-61.494zM509.862 780h-329.862v-302h631.862z" />
<glyph unicode="&#xe434;" glyph-name="bullets" data-tags="bullets" d="M129.112 739.734h379.498v-264.374h-379.498v264.374zM994.106 631.116c-66.764 52.598-169.664 68.058-231.27 72.498-11.238 0.8-21.096 1.24-29.114 1.48l-7.538 0.22h-84.762l-72.824 26.92v-250.034l81.962 27.56h74.924l8.238 0.24c8.018 0.24 17.876 0.68 29.114 1.48 61.606 4.44 164.504 19.9 231.27 72.498l29.894 23.558-29.894 23.58zM0 707.594h69.124v-200.096h-69.124v200.096zM129.112 420.64h379.498v-264.374h-379.498v264.374zM994.106 312.024c-66.766 52.598-169.664 68.058-231.27 72.498-11.238 0.8-21.096 1.24-29.114 1.48l-8.238 0.24h-84.082l-72.804 26.9v-250.034l82.022 27.58h75.562l36.654 1.7c61.606 4.44 164.504 19.9 231.27 72.498l29.894 23.578-29.894 23.56zM0 388.502h69.124v-200.096h-69.124v200.096z" />
<glyph unicode="&#xe435;" glyph-name="microphone" data-tags="microphone" d="M511.997 251.094c54.161 0 100.511 19.282 139.073 57.829 38.556 38.547 57.836 84.921 57.836 139.077v315.070c0 54.157-19.265 100.511-57.836 139.077-38.562 38.558-84.912 57.851-139.073 57.851-54.155 0-100.511-19.293-139.075-57.851-38.567-38.56-57.847-84.921-57.847-139.077v-315.070c0-54.155 19.289-100.53 57.847-139.077s84.921-57.829 139.075-57.829zM854.753 554.461c-7.772 7.796-17.023 11.695-27.69 11.695-10.656 0-19.886-3.899-27.69-11.695-7.787-7.794-11.684-17.023-11.684-27.686v-78.774c0-75.9-26.981-140.819-80.931-194.767-53.933-53.95-118.86-80.925-194.762-80.925-75.9 0-140.821 26.975-194.773 80.925-53.945 53.933-80.916 118.864-80.916 194.767v78.774c0 10.663-3.899 19.892-11.691 27.686-7.796 7.796-17.017 11.695-27.69 11.695s-19.905-3.899-27.697-11.695c-7.798-7.794-11.695-17.023-11.695-27.686v-78.774c0-90.667 30.262-169.542 90.768-236.612 60.509-67.072 135.277-105.531 224.309-115.37v-81.239h-157.536c-10.667 0-19.897-3.903-27.69-11.7-7.796-7.79-11.695-17.023-11.695-27.69 0-10.65 3.899-19.901 11.695-27.69 7.794-7.79 17.023-11.7 27.69-11.7h393.833c10.665 0 19.907 3.908 27.69 11.7 7.805 7.787 11.706 17.038 11.706 27.69 0 10.665-3.901 19.899-11.706 27.69-7.781 7.796-17.023 11.7-27.69 11.7h-157.517v81.239c89.016 9.839 163.778 48.298 224.293 115.37 60.515 67.070 90.786 145.945 90.786 236.612v78.774c0 10.661-3.908 19.884-11.715 27.686z" />
<glyph unicode="&#xe436;" glyph-name="bank" data-tags="bank" d="M977.028 29.313h-930.491c-25.708 0-46.537-20.828-46.537-46.558 0-25.687 20.828-46.515 46.537-46.515h930.469c25.708 0 46.537 20.828 46.537 46.515-0.022 25.73-20.85 46.558-46.515 46.558zM104.685 150.295c-25.708 0-46.537-20.828-46.537-46.537s20.828-46.558 46.537-46.558h814.172c25.708 0 46.537 20.85 46.537 46.558s-20.828 46.537-46.537 46.537h-11.612v418.742h11.612c12.876 0 23.246 10.414 23.246 23.246s-10.414 23.246-23.246 23.246h-814.172c-12.854 0-23.246-10.414-23.246-23.246s10.414-23.246 23.246-23.246h11.634v-418.72h-11.634zM814.172 569.036v-418.72h-139.566v418.72h139.566zM581.532 569.036v-418.72h-139.566v418.72h139.566zM209.349 569.036h139.566v-418.72h-139.566v418.72zM46.537 657.36h930.469c0.153 0 0.327 0 0.458 0 25.73 0 46.537 20.828 46.537 46.537 0 20.436-13.159 37.756-31.438 44.031l-461.662 207.737c-12.135 5.447-26.013 5.447-38.17 0l-465.278-209.349c-20.022-9.020-31.024-30.763-26.406-52.201 4.597-21.438 23.551-36.754 45.491-36.754z" />
<glyph unicode="&#xe437;" glyph-name="money" data-tags="money" d="M239.297 752.371l408.22 111.427-21.618 43.697c-14.144 28.403-48.641 40.132-77.044 25.988l-365.443-181.112h55.886zM774.238 860.578c-5.058 0-10.119-0.69-15.179-2.070l-388.787-106.137h477.33l-17.939 65.775c-6.899 25.643-30.128 42.432-55.426 42.432zM907.514 712.124h-849.903c-18.169 0-34.382-8.394-44.962-21.618-4.83-6.095-8.509-13.109-10.579-20.813-1.265-4.83-2.070-9.889-2.070-15.064v-640.618c0-31.739 25.758-57.496 57.496-57.496h849.903c31.739 0 57.496 25.757 57.496 57.496v160.413h-341.18c-53.931 0-97.743 43.812-97.743 97.743v127.871c0 26.448 10.578 50.48 27.713 68.074 15.179 15.64 35.532 26.219 58.301 28.864 3.795 0.459 7.704 0.69 11.614 0.69h341.295v156.964c0.115 31.738-25.643 57.496-57.381 57.496zM1005.256 442.699c-5.75 5.29-12.534 9.314-20.124 11.959-5.866 1.954-12.074 3.104-18.629 3.104h-342.79c-31.739 0-57.496-25.757-57.496-57.496v-127.984c0-31.738 25.757-57.496 57.496-57.496h342.79c6.555 0 12.764 1.15 18.629 3.105 7.589 2.53 14.374 6.67 20.124 11.959 11.499 10.464 18.744 25.643 18.744 42.431v127.986c0 16.79-7.244 31.97-18.744 42.433zM743.766 324.833c0-15.869-12.879-28.748-28.748-28.748h-19.089c-15.869 0-28.748 12.879-28.748 28.748v19.089c0 9.199 4.255 17.365 11.039 22.539 4.945 3.795 11.040 6.208 17.709 6.208h19.089c15.869 0 28.748-12.878 28.748-28.748v-19.089z" />
<glyph unicode="&#xe438;" glyph-name="engine" data-tags="engine" d="M1010.432 466.337l-114.907 87.238c-10.392 7.888-24.306 9.227-36.001 3.398-11.657-5.777-19.043-17.687-19.043-30.724v-53.379h-33.99v53.948c0 18.949-15.36 34.313-34.302 34.313h-68.292v127.4c0 18.952-15.364 34.313-34.306 34.313h-106.7v36.414h28.723c18.945 0 34.309 15.364 34.309 34.309s-15.364 34.302-34.309 34.302h-221.631c-18.942 0-34.306-15.357-34.306-34.302s15.364-34.309 34.306-34.309h28.744v-36.414h-132.625c-18.945 0-34.309-15.36-34.309-34.313v-66.964h-66.999c-18.949 0-34.309-15.36-34.309-34.306v-78.479h-61.878v97.338c0 18.945-15.36 34.306-34.306 34.306-18.945 0.003-34.302-15.36-34.302-34.302v-358.833c0-18.945 15.357-34.302 34.306-34.302 18.945 0 34.306 15.36 34.306 34.302v97.342h61.881v-80.452c0-18.949 15.36-34.306 34.309-34.306h86.27l121.034-149.057c6.515-8.020 16.3-12.677 26.629-12.677h373.462c18.945 0 34.302 15.367 34.302 34.309v45.328h33.99v-45.328c0-13.401 7.798-25.561 19.965-31.171 4.587-2.105 9.483-3.134 14.337-3.134 8.041 0 15.981 2.829 22.333 8.263l114.91 98.486c7.604 6.525 11.973 16.036 11.973 26.053v238.077c-0.007 10.714-5.031 20.832-13.575 27.316z" />
<glyph unicode="&#xe439;" glyph-name="gas" data-tags="gas" d="M939.805 719.36l0.853 0.853-211.912 211.341-60.301-60.301 120.035-120.035c-53.475-20.48-91.592-71.965-91.592-132.552 0-78.507 63.715-142.221 142.221-142.221 20.195 0 39.539 4.267 56.888 11.947v-410.168c0.003-31.291-25.597-56.891-56.885-56.891s-56.888 25.6-56.888 56.888v256c0 62.861-50.915 113.779-113.779 113.779h-56.888v398.221c-0.003 62.864-50.917 113.779-113.779 113.779h-341.333c-62.864 0-113.779-50.915-113.779-113.779v-910.221h568.888v426.667h85.333v-284.445c0-78.507 63.715-142.221 142.221-142.221s142.221 63.715 142.221 142.221v540.445c0.003 39.253-15.925 74.808-41.525 100.693zM497.779 561.779h-341.333v284.443h341.333v-284.443zM839.112 561.779c-31.288 0-56.888 25.6-56.888 56.888s25.6 56.888 56.888 56.888c31.288 0 56.888-25.6 56.888-56.888s-25.6-56.888-56.888-56.888z" />
<glyph unicode="&#xe43a;" glyph-name="close" data-tags="close" d="M633.703 448l365.094 365.094c33.607 33.607 33.607 88.095 0 121.698-33.607 33.607-88.091 33.607-121.698 0l-365.099-365.099-365.099 365.104c-33.607 33.607-88.091 33.607-121.698 0-33.603-33.607-33.603-88.095 0-121.698l365.099-365.094-365.099-365.099c-33.603-33.607-33.603-88.095 0-121.698 33.607-33.607 88.091-33.607 121.698 0l365.099 365.099 365.099-365.099c33.603-33.607 88.091-33.607 121.698 0s33.607 88.091 0 121.698l-365.094 365.094z" />
<glyph unicode="&#xe43b;" glyph-name="arrow" data-tags="arrow" d="M782.857 397.307l-440.304-440.29c-28.009-28.022-73.42-28.022-101.415 0-27.997 27.997-27.997 73.406 0 101.401l389.601 389.589-389.589 389.576c-27.997 28.009-27.997 73.413 0 101.41 27.997 28.009 73.406 28.009 101.415 0l440.304-440.297c13.999-14.005 20.99-32.342 20.99-50.687 0-18.354-7.005-36.704-21.001-50.703z" />
<glyph unicode="&#xe43c;" glyph-name="send" data-tags="send" d="M1002.789 481.239l-950.834 438.846c-15.14 6.875-33.206 2.779-43.738-10.24-10.605-13.019-10.971-31.524-0.878-44.909l312.678-416.904-312.678-416.904c-10.093-13.385-9.728-31.963 0.805-44.909 7.095-8.85 17.7-13.604 28.452-13.604 5.193 0 10.386 1.097 15.286 3.364l950.834 438.846c13.019 5.998 21.284 18.944 21.284 33.206s-8.265 27.208-21.211 33.206z" />
<glyph unicode="&#xe43d;" glyph-name="flatarrow" data-tags="flatarrow" d="M780.992 492.992c12.672-12.672 19.008-27.648 19.008-44.992s-6.368-32.352-19.008-44.992l-448-448c-12.672-12.672-27.648-19.008-44.992-19.008s-32.32 6.336-45.024 19.008c-12.672 12.672-19.008 27.68-19.008 44.992v896c0 17.344 6.336 32.32 19.008 44.992s27.68 19.008 45.024 19.008 32.32-6.336 44.992-19.008z" />
<glyph unicode="&#xe43e;" glyph-name="twoarrow" data-tags="twoarrow" d="M558.592 48.448c12.448-12.416 19.296-28.96 19.296-46.56s-6.848-34.144-19.296-46.56c-12.416-12.448-28.96-19.296-46.56-19.296s-34.144 6.848-46.56 19.296l-446.144 446.144c-12.256 12.256-19.296 29.248-19.296 46.56s7.040 34.304 19.296 46.56l446.144 446.112c12.416 12.448 28.96 19.296 46.56 19.296s34.144-6.848 46.592-19.296c12.448-12.448 19.296-28.96 19.296-46.56s-6.848-34.144-19.296-46.56l-399.552-399.552zM1004.704 48.448c12.448-12.416 19.296-28.96 19.296-46.56s-6.848-34.144-19.296-46.56c-12.448-12.448-28.992-19.296-46.56-19.296s-34.144 6.848-46.56 19.296l-446.112 446.144c-12.448 12.448-19.296 28.992-19.296 46.56s6.848 34.144 19.296 46.56l446.112 446.112c12.448 12.448 28.96 19.296 46.56 19.296s34.144-6.848 46.592-19.296c12.448-12.448 19.296-28.96 19.296-46.56s-6.848-34.144-19.296-46.56l-399.552-399.552z" />
<glyph unicode="&#xe43f;" glyph-name="connect-good" data-tags="connect-good" d="M0-64l1024 1024v-1024h-1024z" />
<glyph unicode="&#xe440;" glyph-name="connect-medium" data-tags="connect-medium" d="M0-64l1024 1024v-1024h-1024zM921.6 38.4v675.84l-168.96-174.080v-501.76h168.96z" />
<glyph unicode="&#xe441;" glyph-name="power-null" data-tags="power-null" d="M72.992 842.4l44.608 44.608 833.408-833.408-44.64-44.608zM0 678.4h175.008l460.736-460.768h-635.744v460.768zM935.072 327.136v0-109.504h-120.96l-460.736 460.768h581.696l0.288-115.84h88.64v-192.928h-88.64v-42.528h-0.288zM935.328 541.504v-150.848h67.616v150.848h-67.616z" />
<glyph unicode="&#xe442;" glyph-name="power-full" data-tags="power-full" d="M995.616 535.264c15.68 0 28.384-12.704 28.384-28.384v-117.792c0-15.68-12.704-28.384-28.384-28.384h-54.656v-112.128c0-15.68-12.704-28.384-28.384-28.384h-884.16c-15.68 0-28.384 12.704-28.384 28.384v398.784c0 15.68 12.704 28.384 28.384 28.384h884.16c15.68 0 28.384-12.704 28.384-28.384v-112.128h54.656z" />
<glyph unicode="&#xe443;" glyph-name="power-medium" data-tags="power-medium" d="M995.616 535.264c15.68 0 28.384-12.704 28.384-28.384v-117.792c0-15.68-12.704-28.384-28.384-28.384h-54.656v-112.128c0-15.68-12.704-28.384-28.384-28.384h-884.16c-15.68 0-28.384 12.704-28.384 28.384v398.784c0 15.68 12.704 28.384 28.384 28.384h884.16c15.68 0 28.384-12.704 28.384-28.384v-112.128h54.656zM862.56 291.104v0 313.824h-11.36l-255.488-313.824h266.816z" />
<glyph unicode="&#xe444;" glyph-name="phone-home" data-tags="phone-home" d="M878.048 960c80.48 0 145.952-65.472 145.952-145.952v-732.096c0-80.48-65.472-145.952-145.952-145.952h-732.096c-80.48 0-145.952 65.472-145.952 145.952v732.096c0 80.48 65.472 145.952 145.952 145.952h732.096zM941.28 81.952v732.096c0 34.848-28.352 63.232-63.232 63.232h-732.096c-34.848 0-63.232-28.352-63.232-63.232v-732.096c0-34.848 28.352-63.232 63.232-63.232h732.096c34.848 0 63.232 28.352 63.232 63.232z" />
<glyph unicode="&#xe445;" glyph-name="exit" data-tags="exit" d="M633.703 448l365.094 365.094c33.607 33.607 33.607 88.095 0 121.698-33.607 33.607-88.091 33.607-121.698 0l-365.099-365.099-365.099 365.104c-33.607 33.607-88.091 33.607-121.698 0-33.603-33.607-33.603-88.095 0-121.698l365.099-365.094-365.099-365.099c-33.603-33.607-33.603-88.095 0-121.698 33.607-33.607 88.091-33.607 121.698 0l365.099 365.099 365.099-365.099c33.603-33.607 88.091-33.607 121.698 0s33.607 88.091 0 121.698l-365.094 365.094z" />
<glyph unicode="&#xe446;" glyph-name="dollar" data-tags="dollar" horiz-adv-x="602" d="M304.911 510.765c31.804-7.228 56.742-13.734 74.812-19.516 18.793-5.060 42.285-14.095 70.475-27.106 28.19-12.288 49.875-26.022 65.054-41.201s28.552-35.78 40.117-61.801c12.288-26.022 18.432-55.657 18.432-88.907 0-65.777-21.685-117.82-65.054-156.13-43.369-37.587-98.665-60.717-165.888-69.391v-83.486c0-10.842-5.060-16.264-15.179-16.264h-73.728c-10.842 0-16.264 5.421-16.264 16.264v82.402c-75.896 7.951-149.986 42.285-222.268 103.002-8.674 7.228-9.397 14.818-2.168 22.769l53.128 73.728c6.505 8.674 13.734 9.758 21.685 3.253 70.114-52.043 137.698-79.149 202.752-81.318 41.201 0 76.619 9.035 106.255 27.106 30.359 18.793 45.538 45.538 45.538 80.233 0 15.179-3.253 28.552-9.758 40.117s-14.095 20.962-22.769 28.19c-8.674 7.228-22.046 14.095-40.117 20.6-17.348 6.505-32.527 11.204-45.538 14.095-12.288 3.614-30.359 7.951-54.212 13.011-33.25 7.228-62.524 15.541-87.823 24.937s-51.682 22.408-79.149 39.032c-27.467 17.348-48.791 39.755-63.97 67.223-15.179 28.19-22.769 61.079-22.769 98.665 0 64.331 20.239 114.929 60.717 151.793 40.478 37.587 93.967 60.717 160.467 69.391v76.981c0 10.842 5.421 16.264 16.264 16.264h73.728c10.12 0 15.179-5.421 15.179-16.264v-75.896c67.945-7.228 136.252-35.78 204.92-85.655 8.674-5.060 10.12-12.288 4.337-21.685l-50.959-73.728c-5.783-7.951-13.372-9.035-22.769-3.253-59.272 40.478-122.88 61.801-190.825 63.97-44.092 0-78.788-9.397-104.087-28.19s-37.948-44.454-37.948-76.981c0-13.011 2.891-24.937 8.674-35.78 5.783-10.12 12.649-18.432 20.6-24.937s19.878-13.011 35.78-19.516c15.902-5.783 29.997-10.481 42.285-14.095 12.288-2.891 29.636-6.867 52.043-11.927z" />
<glyph unicode="&#xe447;" glyph-name="star" data-tags="star" horiz-adv-x="1092" d="M546.133 960l122.614-377.369h396.792l-321.010-233.227 122.614-377.367-321.010 233.226-321.009-233.226 122.614 377.367-321.009 233.227h396.789l122.614 377.369z" />
<glyph unicode="&#xe448;" glyph-name="helmet" data-tags="helmet" horiz-adv-x="1003" d="M874.201 184.182c-3.011 16.225-10.737 31.146-22.173 42.82l-88.559 90.405c9.768-77.31 33.802-195.179 48.007-261.902l71.028-13.734c4.236-0.821 8.597 0.554 11.646 3.668 3.049 3.112 4.395 7.563 3.59 11.889l-23.539 126.855zM268.566 545.493l41.796-42.667c15.337 17.956 32.686 33.203 54.385 46.325l-46.299 47.265-49.881-50.922zM163.232 511.409l274.459 280.178c17.636 18.003 17.636 47.192 0 65.192l-26.194 26.735c-22.091 22.552-59.547 15.95-72.838-13.076l-53.984-117.879c-46.408 47.373-36.417 37.177-83.504 85.245 5.172 31.803-4.229 65.594-28.265 90.13-39.555 40.379-103.688 40.379-143.243 0s-39.555-105.844 0-146.227c24.032-24.533 57.136-34.133 88.287-28.853 47.094-48.068 37.1-37.868 83.508-85.244l-115.476-55.104c-28.383-13.544-34.912-51.794-12.81-74.361l26.189-26.735c17.639-18.002 46.233-18.002 63.869 0zM151.077 227.006c-11.44-11.676-19.165-26.597-22.177-42.82l-23.537-126.857c-0.804-4.324 0.543-8.777 3.592-11.889 3.049-3.114 7.407-4.485 11.646-3.668l71.028 13.734c14.204 66.723 38.242 184.592 48.006 261.902l-88.557-90.402zM692.744 502.826l41.796 42.667-49.881 50.922-46.302-47.265c21.673-13.109 39.031-28.348 54.387-46.325zM501.551 584.779l-97.251 99.276-49.881-50.916 60.259-61.515c26.244 8.238 55.020 12.424 86.212 12.484 0.224 0 0.437 0.013 0.66 0.013 31.449 0 60.443-4.196 86.873-12.497l60.259 61.515-49.881 50.92-97.251-99.28zM885.15 752.852c31.155-5.28 64.255 4.321 88.29 28.853 39.556 40.379 39.556 105.848 0 146.227-39.554 40.379-103.683 40.379-143.239 0-24.033-24.533-33.437-58.327-28.264-90.126-47.085-48.065-36.948-37.716-83.508-85.248l-53.979 117.882c-13.308 29.065-50.774 35.601-72.84 13.076l-26.187-26.735c-17.636-18.003-17.636-47.189 0-65.192l274.459-280.177c17.636-18.004 46.224-18.004 63.86 0l26.194 26.735c22.108 22.574 15.567 60.815-12.81 74.359l-115.476 55.104c46.402 47.374 36.411 37.173 83.502 85.242zM501.553 532.185c-116.356 0-192.97-67.254-210.677-215.065-11.147-93.057-43.875-247.12-56.044-302.903-2.6-11.916 4.037-23.93 15.381-27.794l139.264-47.417c6.875-2.341 14.422-1.291 20.434 2.84 6.010 4.129 9.805 10.875 10.267 18.256l11.893 189.476c0.61 9.703-4.616 18.812-13.203 23.019l-66.466 32.565c-22.407 10.978-31.857 38.419-21.103 61.294 10.748 22.86 37.639 32.515 60.044 21.542l100.105-49.045c6.391-3.128 13.824-3.128 20.215 0l100.103 49.045c22.392 10.971 49.29 1.333 60.042-21.542 10.754-22.875 1.306-50.318-21.103-61.294l-66.466-32.565c-8.587-4.207-13.814-13.316-13.203-23.019l11.895-189.476c0.464-7.381 4.257-14.127 10.265-18.256 6.010-4.132 13.561-5.181 20.434-2.84l139.264 47.417c11.368 3.872 17.985 15.853 15.381 27.794-12.169 55.785-44.897 209.847-56.044 302.903-17.711 147.811-94.327 215.065-210.679 215.065z" />
<glyph unicode="&#xe449;" glyph-name="helmet-table" data-tags="helmet-table" d="M511.995 960c-222.885 0-369.643-115.858-403.562-370.499-21.354-160.31-84.046-425.721-107.356-521.819-4.983-20.531 7.731-41.225 29.462-47.881l266.769-81.692c13.169-4.031 27.623-2.225 39.142 4.892 11.512 7.117 18.782 18.735 19.665 31.451l22.784 326.419c1.169 16.714-8.842 32.41-25.291 39.657l-127.32 56.101c-42.923 18.911-61.022 66.183-40.422 105.591 20.588 39.383 72.099 56.017 115.016 37.11l191.76-84.491c12.237-5.39 26.48-5.39 38.721 0l191.749 84.491c42.901 18.901 94.422 2.296 115.018-37.11 20.601-39.408 2.499-86.684-40.425-105.591l-127.316-56.101c-16.449-7.247-26.461-22.942-25.293-39.657l22.784-326.419c0.889-12.716 8.15-24.334 19.665-31.451 11.511-7.117 25.972-8.923 39.14-4.892l266.771 81.692c21.774 6.665 34.448 27.308 29.459 47.881-23.305 96.102-85.997 361.509-107.352 521.819-33.927 254.642-180.689 370.499-403.568 370.499z" />
<glyph unicode="&#xe44a;" glyph-name="success" data-tags="success" d="M738.327 610.46c15.627-15.625 15.627-40.951 0-56.57l-268.342-268.351c-15.625-15.619-40.946-15.619-56.57 0l-127.741 127.75c-15.626 15.616-15.626 40.946 0 56.562 15.616 15.625 40.943 15.625 56.562 0l99.462-99.462 240.060 240.071c15.627 15.619 40.954 15.619 56.57 0zM1024 448c0-283.008-229.032-512-512-512-283.008 0-512 229.032-512 512 0 283.008 229.031 512 512 512 283.008 0 512-229.031 512-512zM944 448c0 238.789-193.243 432-432 432-238.789 0-432-193.242-432-432 0-238.788 193.242-432 432-432 238.788 0 432 193.243 432 432z" />
<glyph unicode="&#xe44b;" glyph-name="questions" data-tags="questions" d="M512 153c27.614 0 50 22.386 50 50s-22.386 50-50 50c-27.614 0-50-22.386-50-50s22.386-50 50-50zM512 960c-282.968 0-512-228.994-512-512 0-282.968 228.994-512 512-512 282.968 0 512 228.995 512 512 0 282.968-228.995 512-512 512zM512 16c-238.754 0-432 193.215-432 432 0 238.754 193.214 432 432 432 238.754 0 432-193.214 432-432 0-238.754-193.215-432-432-432zM512 703c-88.223 0-160-71.775-160-160.001 0-22.090 17.909-39.999 39.999-39.999 22.093 0 40.001 17.909 40.001 39.999 0 44.114 35.888 80 80 80s80-35.886 80-80c0-44.112-35.888-80-80-80-22.093 0-39.999-17.906-39.999-39.999v-99.999c0-22.093 17.906-40.001 39.999-40.001s39.999 17.909 39.999 40.001v65.061c68.932 17.806 120.001 80.521 120.001 154.937 0 88.226-71.777 160.001-160 160.001z" />
<glyph unicode="&#xe44c;" glyph-name="information" data-tags="information" d="M512 960c-283.006 0-512-229.014-512-512 0-283.005 229.014-512 512-512 283.005 0 512 229.015 512 512 0 283.006-229.015 512-512 512zM512 16c-238.786 0-432 193.229-432 432 0 238.786 193.23 432 432 432 238.785 0 432-193.23 432-432 0-238.785-193.229-432-432-432zM512 207.681c22.093 0 40.001 17.906 40.001 39.999v257.587c0 22.093-17.909 39.999-40.001 39.999s-40.001-17.906-40.001-39.999v-257.587c0-22.093 17.909-39.999 40.001-39.999zM512 702.25c-29.824 0-53.999-24.177-53.999-54.001 0-29.821 24.175-53.999 53.999-53.999s53.999 24.178 53.999 53.999c0 29.825-24.175 54.001-53.999 54.001z" />
<glyph unicode="&#xe44d;" glyph-name="error" data-tags="error" d="M512-64c283.005 0 512 229.015 512 512 0 283.006-229.015 512-512 512-283.006 0-512-229.014-512-512 0-283.005 229.014-512 512-512zM512 880c238.785 0 432-193.23 432-432 0-238.785-193.229-432-432-432-238.786 0-432 193.229-432 432 0 238.786 193.23 432 432 432zM115.917 182.958l704.762 591.366 51.423-61.284-704.762-591.366-51.423 61.284z" />
<glyph unicode="&#xe44e;" glyph-name="alert" data-tags="alert" d="M512 960c-283.006 0-512-229.014-512-512 0-283.005 229.014-512 512-512 283.005 0 512 229.015 512 512 0 283.006-229.015 512-512 512zM512 16c-238.786 0-432 193.229-432 432 0 238.786 193.23 432 432 432 238.785 0 432-193.23 432-432 0-238.785-193.229-432-432-432zM512 702.25c-22.093 0-39.999-17.908-39.999-40.001v-257.584c0-22.093 17.906-40.001 39.999-40.001s39.999 17.909 39.999 40.001v257.584c0 22.093-17.906 40.001-39.999 40.001zM512 207.681c29.824 0 53.999 24.175 53.999 53.999s-24.175 53.999-53.999 53.999c-29.824 0-53.999-24.175-53.999-53.999s24.175-53.999 53.999-53.999z" />
<glyph unicode="&#xe44f;" glyph-name="update" data-tags="update" horiz-adv-x="910" d="M764.257 765.247l-90.242-90.625c60.482-60.512 93.985-140.991 93.985-226.623 0-176.513-143.487-320-320-320v64l-128-128 128-128v64c247.007 0 448 200.991 448 448 0 119.872-46.751 232.512-131.743 317.247zM576 832l-128 128v-64c-247.008 0-448-200.993-448-448 0-119.872 46.752-232.512 131.744-317.249l90.24 90.624c-60.48 60.514-93.984 140.993-93.984 226.625 0 176.513 143.487 320 320 320v-64l128 128z" />
<glyph unicode="&#xe450;" glyph-name="ar-refresh" data-tags="ar-refresh" d="M233.088 770.862c77.421 67.086 176.468 103.951 278.912 103.808 235.648 0 426.666-191.020 426.666-426.668 0-91.136-28.586-175.616-77.226-244.906l-136.108 244.906h128c0.007 66.918-19.658 132.361-56.548 188.193-36.887 55.831-89.374 99.588-150.931 125.83-61.559 26.241-129.471 33.81-195.295 21.765s-126.657-43.174-174.932-89.515l-42.538 76.588zM790.912 125.144c-77.421-67.086-176.47-103.95-278.912-103.808-235.648 0-426.668 191.018-426.668 426.666 0 91.136 28.587 175.616 77.227 244.908l136.107-244.908h-128c-0.005-66.916 19.659-132.359 56.548-188.19 36.888-55.831 89.375-99.589 150.933-125.831 61.556-26.24 129.469-33.808 195.293-21.765 65.825 12.046 126.657 43.176 174.932 89.514l42.54-76.586z" />
<glyph unicode="&#xe451;" glyph-name="ar-close" data-tags="ar-close" d="M512.002 21.334c-235.648 0-426.667 191.018-426.667 426.666s191.019 426.667 426.667 426.667c235.648 0 426.666-191.019 426.666-426.667s-191.018-426.666-426.666-426.666zM512.002 106.666c90.526 0 177.345 35.963 241.359 99.975 64.012 64.012 99.973 150.833 99.973 241.359s-35.961 177.347-99.973 241.359c-64.014 64.012-150.833 99.974-241.359 99.974-90.529 0-177.347-35.962-241.359-99.974s-99.975-150.833-99.975-241.359 35.962-177.347 99.975-241.359c64.012-64.012 150.831-99.975 241.359-99.975zM512.002 508.33l120.66 120.704 60.374-60.372-120.704-120.662 120.704-120.662-60.374-60.372-120.66 120.704-120.662-120.704-60.374 60.372 120.704 120.662-120.704 120.662 60.374 60.372 120.662-120.704z" />
<glyph unicode="&#xe452;" glyph-name="p-bonus" data-tags="p-bonus" d="M649.619 298.326l-94.422-198.4c-1.786-3.75-4.458-7.011-7.786-9.498-3.328-2.49-7.213-4.128-11.315-4.781-4.106-0.65-8.304-0.291-12.24 1.043-3.933 1.334-7.485 3.61-10.342 6.624l-151.126 159.53c-4.038 4.256-9.414 6.998-15.232 7.766l-217.899 28.499c-4.117 0.544-8.040 2.080-11.431 4.477s-6.148 5.581-8.034 9.28c-1.885 3.699-2.843 7.802-2.789 11.955 0.053 4.15 1.116 8.227 3.096 11.878l105.045 193.024c2.793 5.162 3.726 11.126 2.645 16.896l-40.235 216.021c-0.764 4.089-0.52 8.302 0.71 12.276s3.411 7.587 6.352 10.528c2.941 2.941 6.555 5.122 10.528 6.352s8.187 1.474 12.276 0.71l216.022-40.235c5.77-1.081 11.734-0.147 16.896 2.645l193.024 105.045c3.651 1.981 7.731 3.043 11.888 3.094 4.154 0.051 8.259-0.91 11.958-2.8 3.702-1.89 6.886-4.652 9.28-8.049s3.926-7.324 4.464-11.445l28.499-217.856c0.768-5.818 3.507-11.194 7.766-15.232l159.53-151.126c3.014-2.858 5.286-6.41 6.624-10.342 1.334-3.936 1.693-8.138 1.040-12.24-0.65-4.102-2.291-7.987-4.778-11.315s-5.747-6-9.498-7.786l-198.4-94.422c-5.312-2.528-9.59-6.806-12.118-12.118zM683.626 216.109l60.33 60.33 181.034-180.992-60.371-60.371-180.992 181.034z" />
<glyph unicode="&#xe453;" glyph-name="p-rent" data-tags="p-rent" d="M439.994 466.518l338.774 338.775 90.496-90.496-60.33-60.331 90.496-90.495-150.829-150.87-90.496 90.496-127.571-127.574c23.488-45.197 30.042-97.302 18.467-146.909-11.571-49.603-40.502-93.434-81.568-123.571-41.066-30.134-91.555-44.592-142.346-40.755-50.792 3.84-98.537 25.715-134.608 61.68-36.089 36.032-58.077 83.798-61.979 134.646s10.54 101.411 40.709 142.528c30.169 41.117 74.069 70.064 123.745 81.6s101.839 4.893 147.039-18.723zM401.638 217.005c8.15 7.872 14.65 17.286 19.123 27.699 4.47 10.41 6.826 21.61 6.925 32.938 0.096 11.331-2.061 22.57-6.352 33.056s-10.627 20.013-18.64 28.026c-8.013 8.013-17.539 14.349-28.026 18.64s-21.725 6.451-33.056 6.352c-11.328-0.099-22.527-2.454-32.938-6.925-10.411-4.474-19.827-10.973-27.699-19.123-15.544-16.096-24.145-37.651-23.951-60.026s9.169-43.776 24.99-59.597c15.821-15.821 37.224-24.797 59.597-24.992 22.374-0.192 43.93 8.41 60.026 23.952z" />
<glyph unicode="&#xe454;" glyph-name="p-car" data-tags="p-car" d="M512.042 874.668c-235.627 0-426.667-191.040-426.667-426.668 0-235.626 191.040-426.666 426.667-426.666s426.666 191.040 426.666 426.666c0 235.628-191.040 426.668-426.666 426.668zM512.042 768.001c138.854 0 256.134-89.44 300.426-213.332h-600.852c44.293 123.892 161.572 213.332 300.427 213.332zM512.042 394.669c-29.466 0-53.334 23.866-53.334 53.331 0 29.469 23.869 53.334 53.334 53.334s53.334-23.866 53.334-53.334c0-29.466-23.869-53.331-53.334-53.331zM192.042 448c145.734 0 263.76-140.426 266.24-314.586-150.827 25.84-266.24 156.56-266.24 314.586zM565.802 133.414c2.48 174.16 120.506 314.586 266.24 314.586 0-158.026-115.414-288.746-266.24-314.586z" />
<glyph unicode="&#xe455;" glyph-name="p-fraction" data-tags="p-fraction" d="M488.179 520.646l10.819 69.648-5.446 8.774c-0.778 1.213-0.634 2.803 0.346 3.872l14.198 15.341c1.232 1.302 3.475 1.302 4.704 0l14.202-15.341c0.976-1.069 1.123-2.643 0.346-3.872l-5.446-8.774 10.819-69.632c85.44 1.43 137.181 11.181 137.181 21.347 0 49.661-33.757 51.85-71.277 64.115-23.12 7.507-51.776 11.741-45.626 51.575 15.232 13.93 20.534 42.604 20.534 42.604s20.278 10.221 22.611 29.795c1.718 14.925-6.077 21.853-6.077 21.853s0 1.068 0 18.923c0 42.151-36.109 75.348-79.546 75.348-43.453 0-79.562-33.196-79.562-75.348 0-17.855 0-18.923 0-18.923s-7.779-6.929-6.061-21.853c2.314-19.574 22.595-29.795 22.595-29.795s5.318-28.692 20.55-42.604c6.115-39.819-22.522-44.068-45.642-51.575-37.539-12.266-71.277-14.454-71.277-64.115-0.109-10.147 51.613-19.917 137.053-21.363zM332.89 145.267c-23.119 7.523-51.774 11.741-45.641 51.613 15.232 13.93 20.551 42.582 20.551 42.582s20.262 10.186 22.595 29.779c1.718 14.941-6.061 21.872-6.061 21.872s0 1.085 0 18.902c0 42.154-36.108 75.366-79.561 75.366s-79.563-33.213-79.563-75.366c0-17.837 0-18.902 0-18.902s-7.779-6.931-6.060-21.872c2.316-19.574 22.595-29.779 22.595-29.779s5.319-28.672 20.551-42.582c6.115-39.837-22.523-44.090-45.643-51.613-37.538-12.23-71.277-14.454-71.277-64.096 0-10.166 51.721-19.955 137.181-21.382l10.818 69.648-5.445 8.794c-0.778 1.229-0.633 2.784 0.344 3.853l14.201 15.376c1.23 1.267 3.473 1.267 4.704 0l14.201-15.376c0.977-1.069 1.122-2.643 0.344-3.853l-5.445-8.774 10.818-69.632c85.442 1.411 137.18 11.197 137.18 21.366-0.109 49.622-33.866 51.846-71.386 64.077zM864.336 145.267c-23.101 7.523-51.757 11.741-45.622 51.613 15.232 13.93 20.55 42.582 20.55 42.582s20.259 10.186 22.595 29.779c1.718 14.941-6.061 21.872-6.061 21.872s0 1.085 0 18.902c0 42.154-36.109 75.366-79.562 75.366-43.437 0-79.546-33.213-79.546-75.366 0-17.837 0-18.902 0-18.902s-7.798-6.931-6.061-21.872c2.317-19.574 22.595-29.779 22.595-29.779s5.318-28.672 20.55-42.582c6.115-39.837-22.506-44.090-45.642-51.613-37.52-12.25-71.261-14.454-71.261-64.096 0-10.166 51.722-19.955 137.184-21.382l10.835 69.648-5.462 8.774c-0.781 1.229-0.618 2.784 0.342 3.853l14.202 15.376c1.229 1.267 3.472 1.267 4.704 0l14.202-15.376c0.992-1.069 1.12-2.64 0.362-3.853l-5.446-8.774 10.819-69.632c85.44 1.411 137.181 11.2 137.181 21.366-0.182 49.642-33.939 51.866-71.459 64.096zM637.037 221.008c6.099 0 12.141 2.624 16.336 7.67 7.526 9.027 6.298 22.432-2.73 29.92l-118.982 99.030v116.666c0 11.741-9.517 21.258-21.258 21.258s-21.258-9.517-21.258-21.258v-116.666l-118.979-99.030c-9.027-7.488-10.259-20.893-2.752-29.92s20.915-10.24 29.942-2.714l113.046 94.051 113.050-94.051c3.962-3.328 8.755-4.957 13.584-4.957z" />
<glyph unicode="&#xe456;" glyph-name="p-biz" data-tags="p-biz" d="M236.047 453.69c17.594 0 33.517 7.366 45.284 19.194l64.553-33.677c-0.323-2.746-0.8-5.44-0.8-8.272 0-37.642 29.347-68.269 65.421-68.269s65.424 30.627 65.424 68.269c0 10.506-2.477 20.342-6.56 29.242l87.571 91.379c8.528-4.259 17.955-6.845 28.026-6.845 36.074 0 65.421 30.624 65.421 68.266 0 7.088-1.334 13.792-3.264 20.221l76.086 59.532c10.381-7.236 22.826-11.484 36.214-11.484 36.074 0 65.424 30.625 65.424 68.267s-29.35 68.267-65.424 68.267c-36.074 0-65.421-30.625-65.421-68.267 0-7.087 1.334-13.79 3.264-20.219l-76.086-59.532c-10.381 7.236-22.822 11.484-36.214 11.484-36.074 0-65.424-30.625-65.424-68.268 0-10.506 2.477-20.342 6.56-29.242l-87.571-91.379c-8.528 4.259-17.955 6.845-28.026 6.845-17.594 0-33.517-7.366-45.283-19.194l-64.554 33.677c0.324 2.742 0.801 5.44 0.801 8.272 0 37.642-29.349 68.266-65.422 68.266s-65.422-30.624-65.422-68.266c0-37.642 29.349-68.266 65.422-68.266zM859.251 94.566h-24v473.261c0 12.378-10.067 22.397-22.502 22.397h-90c-12.432 0-22.499-10.019-22.499-22.397v-473.261h-44.998v338.896c0 12.378-10.067 22.397-22.502 22.397h-90c-12.432 0-22.499-10.019-22.499-22.397v-338.896h-44.998v159.744c0 12.374-10.067 22.394-22.502 22.394h-90c-12.432 0-22.499-10.019-22.499-22.394v-159.744h-45v249.322c0 12.374-10.066 22.394-22.5 22.394h-90c-12.434 0-22.5-10.019-22.5-22.394v-249.322h-24c-12.434 0-22.5-10.019-22.5-22.394s10.066-22.394 22.5-22.394h723.001c12.432 0 22.499 10.019 22.499 22.394s-10.067 22.394-22.499 22.394z" />
<glyph unicode="&#xe457;" glyph-name="p-add" data-tags="p-add" d="M512.042 21.334c-235.648 0-426.667 191.018-426.667 426.666s191.019 426.668 426.667 426.668 426.666-191.019 426.666-426.668c0-235.648-191.018-426.666-426.666-426.666zM469.376 490.669h-170.668v-85.334h170.668v-170.666h85.331v170.666h170.669v85.334h-170.669v170.666h-85.331v-170.666z" />
<glyph unicode="&#xe458;" glyph-name="p-sim" data-tags="p-sim" d="M213.292 874.668h426.667l200.832-200.832c8.003-8 12.499-18.85 12.502-30.165v-579.671c0-11.315-4.496-22.166-12.499-30.17-8-8-18.851-12.496-30.17-12.496h-597.332c-11.316 0-22.168 4.496-30.17 12.496-8.002 8.003-12.497 18.854-12.497 30.17v768.001c0 11.316 4.495 22.168 12.497 30.17s18.854 12.497 30.17 12.497zM554.624 192v341.334h-213.331v-85.334h128v-256h85.331zM341.293 405.334v-85.334h85.331v85.334h-85.331zM597.293 405.334v-85.334h85.331v85.334h-85.331zM597.293 533.334v-85.334h85.331v85.334h-85.331zM341.293 277.334v-85.334h85.331v85.334h-85.331zM597.293 277.334v-85.334h85.331v85.334h-85.331z" />
<glyph unicode="&#xe459;" glyph-name="p-call-accept" data-tags="p-call-accept" d="M896 259.413v-150.869c0.006-10.803-4.087-21.205-11.452-29.107s-17.454-12.718-28.228-13.474c-18.645-1.28-33.877-1.963-45.653-1.963-377.045 0-682.667 305.621-682.667 682.667 0 11.776 0.64 27.008 1.963 45.653 0.756 10.776 5.571 20.863 13.474 28.228s18.305 11.457 29.107 11.452h150.869c5.294 0.005 10.396-1.957 14.325-5.505 3.925-3.548 6.394-8.429 6.923-13.695 0.981-9.813 1.877-17.621 2.731-23.552 8.479-59.175 25.856-116.727 51.541-170.709 4.053-8.533 1.408-18.731-6.272-24.192l-92.075-65.792c56.297-131.177 160.833-235.713 292.011-292.011l65.707 91.904c2.685 3.755 6.605 6.448 11.071 7.609 4.469 1.163 9.202 0.72 13.377-1.252 53.973-25.637 111.514-42.971 170.667-51.413 5.931-0.853 13.739-1.792 23.467-2.731 5.259-0.54 10.129-3.012 13.668-6.938 3.541-3.925 5.495-9.025 5.49-14.31h-0.043z" />
<glyph unicode="&#xe45a;" glyph-name="p-call-cancel" data-tags="p-call-cancel" d="M107.173 309.837l-106.681 106.681c-7.642 7.634-12.103 17.886-12.484 28.681s3.348 21.333 10.432 29.488c12.279 14.089 22.567 25.341 30.894 33.67 266.613 266.61 698.826 266.61 965.436 0 8.329-8.329 18.645-19.55 30.894-33.67 7.086-8.155 10.815-18.694 10.433-29.488s-4.841-21.046-12.484-28.681l-106.681-106.681c-3.738-3.746-8.735-5.968-14.020-6.235s-10.482 1.439-14.581 4.787c-7.632 6.246-13.787 11.133-18.583 14.723-47.841 35.849-100.824 64.256-157.156 84.264-8.9 3.169-14.242 12.251-12.672 21.544l18.586 111.627c-132.565 52.949-280.402 52.946-412.968 0l18.526-111.448c0.757-4.554-0.111-9.227-2.449-13.21-2.338-3.979-5.999-7.014-10.342-8.573-56.294-20.036-109.237-48.466-157.035-84.324-4.797-3.59-10.982-8.448-18.524-14.663-4.099-3.337-9.291-5.035-14.57-4.759-5.279 0.273-10.268 2.495-14.001 6.238l0.030 0.028z" />
<glyph unicode="&#xe45b;" glyph-name="p-gps" data-tags="p-gps" d="M266.027 684.672c-54.398-56.459-87.701-129.926-94.312-208.048-6.61-78.126 13.875-156.143 58.013-220.939 44.138-64.799 109.238-112.427 184.357-134.878 75.119-22.454 155.676-18.361 228.133 11.588 4.907 32-5.845 62.72-10.24 73.472-9.813 23.893-42.155 64.725-96.128 121.344-14.421 15.147-13.483 26.795-8.32 61.312l0.555 3.883c3.499 23.637 9.387 37.632 88.96 50.261 40.448 6.4 51.072-9.728 65.792-32.128l4.949-7.339c13.995-20.48 24.363-25.173 40.021-32.256 7.040-3.2 15.787-7.253 27.52-13.867 27.819-15.915 27.819-33.877 27.819-73.216v-4.48c0-16.683-1.621-31.36-4.181-44.117 32.74 41.091 55.558 89.185 66.671 140.535s10.226 104.576-2.594 155.529c-12.82 50.95-37.225 98.256-71.316 138.234-34.094 39.977-76.954 71.547-125.241 92.251-23.595-15.915-55.979-38.485-67.285-53.973-5.76-7.893-13.952-48.299-40.533-51.627-6.912-0.853-16.256-0.256-26.155 0.384-26.539 1.707-62.805 4.053-74.411-27.477-7.381-19.968-8.661-74.24 15.189-102.4 3.84-4.48 4.565-12.8 1.963-22.144-3.413-12.245-10.283-19.712-12.459-21.248-4.096 2.389-12.288 11.904-17.877 18.347-13.355 15.573-30.080 34.987-51.669 40.96-7.851 2.176-16.469 3.968-24.875 5.76-23.424 4.907-49.92 10.496-56.107 23.637-4.523 9.643-4.48 22.912-4.48 36.907 0 17.792 0 37.888-8.704 57.387-3.026 6.958-7.473 13.208-13.056 18.347zM512 21.333c-235.648 0-426.667 191.019-426.667 426.667s191.019 426.667 426.667 426.667c235.648 0 426.667-191.019 426.667-426.667s-191.019-426.667-426.667-426.667z" />
<glyph unicode="&#xe45c;" glyph-name="p-contacts" data-tags="p-contacts" d="M128 746.88c0 47.019 38.101 85.12 85.12 85.12h597.76c47.019 0 85.12-38.101 85.12-85.12v-597.76c0-22.576-8.969-44.225-24.932-60.188s-37.612-24.932-60.188-24.932h-597.76c-22.575 0-44.226 8.969-60.189 24.932s-24.931 37.612-24.931 60.188v597.76zM271.232 192h490.24c-27.494 39.535-64.148 71.825-106.834 94.117-42.684 22.289-90.132 33.914-138.286 33.883-48.154 0.031-95.602-11.594-138.286-33.883-42.687-22.292-79.34-54.582-106.834-94.117zM512 405.333c19.61 0 39.029 3.863 57.148 11.366 18.116 7.506 34.58 18.506 48.447 32.373s24.866 30.33 32.373 48.447c7.504 18.119 11.366 37.538 11.366 57.148s-3.863 39.029-11.366 57.148c-7.506 18.116-18.506 34.58-32.373 48.447s-30.33 24.867-48.447 32.372c-18.119 7.504-37.538 11.367-57.148 11.367-39.606 0-77.588-15.733-105.594-43.739s-43.739-65.988-43.739-105.594c0-39.606 15.733-77.588 43.739-105.594s65.988-43.739 105.594-43.739z" />
<glyph unicode="&#xe45d;" glyph-name="p-gift" data-tags="p-gift" d="M113.875 419.68v-342.061c0-31.469 25.597-57.008 57.010-57.008h285.048v399.069h-342.058zM912.022 647.724h-180.378c12.941 8.836 24.058 17.616 31.811 25.483 46.006 46.235 46.006 121.488 0 167.723-44.698 45.038-122.573 44.924-167.21 0-24.742-24.799-90.304-125.764-81.242-193.206h-4.102c9.008 67.443-56.554 168.407-81.242 193.206-44.694 44.924-122.57 44.924-167.208 0-45.95-46.235-45.95-121.488-0.057-167.723 7.81-7.867 18.927-16.647 31.868-25.483h-180.379c-31.412 0-57.010-25.596-57.010-57.011v-85.514c0-15.734 12.77-28.506 28.505-28.506h370.563v114.019h114.022v-114.019h370.563c15.734 0 28.506 12.771 28.506 28.506v85.514c0 31.414-25.542 57.011-57.011 57.011zM452.579 649.605c0 0-2.394-1.881-10.547-1.881-39.392 0-114.589 40.933-139.16 65.675-23.887 24.058-23.887 63.281 0 87.339 11.573 11.63 26.91 18.015 43.214 18.015 16.246 0 31.584-6.385 43.155-18.015 38.426-38.653 76.621-137.394 63.338-151.133zM583.818 647.724c-8.096 0-10.49 1.824-10.49 1.881-13.283 13.739 24.912 112.48 63.338 151.133 22.973 23.203 63.165 23.317 86.368 0 23.946-24.058 23.946-63.281 0-87.339-24.57-24.742-99.766-65.675-139.216-65.675zM570 419.68v-399.069h285.050c31.469 0 57.008 25.539 57.008 57.008v342.061h-342.058z" />
<glyph unicode="&#xe45e;" glyph-name="p-lock" data-tags="p-lock" d="M810.667 533.333h42.667c11.315 0 22.17-4.494 30.171-12.496s12.496-18.856 12.496-30.171v-426.667c0-11.315-4.494-22.17-12.496-30.171s-18.856-12.496-30.171-12.496h-682.667c-11.316 0-22.168 4.494-30.17 12.496s-12.497 18.856-12.497 30.171v426.667c0 11.315 4.495 22.17 12.497 30.171s18.854 12.496 30.17 12.496h42.667v42.667c0 39.222 7.725 78.060 22.735 114.295s37.009 69.161 64.744 96.894c27.733 27.734 60.658 49.733 96.893 64.743s75.073 22.735 114.295 22.735c39.222 0 78.060-7.725 114.295-22.735s69.16-37.009 96.893-64.743c27.733-27.734 49.735-60.659 64.742-96.894 15.010-36.235 22.736-75.073 22.736-114.295v-42.667zM725.333 533.333v42.667c0 56.579-22.477 110.842-62.484 150.849s-94.271 62.484-150.849 62.484c-56.579 0-110.842-22.476-150.849-62.484s-62.484-94.271-62.484-150.849v-42.667h426.667zM469.333 362.667v-170.667h85.333v170.667h-85.333z" />
<glyph unicode="&#xe45f;" glyph-name="p-bank" data-tags="p-bank" d="M85.375 106.669h853.332v-85.334h-853.332v85.334zM170.708 448h85.333v-298.666h-85.333v298.666zM384.042 448h85.334v-298.666h-85.334v298.666zM554.707 448h85.334v-298.666h-85.334v298.666zM768.042 448h85.334v-298.666h-85.334v298.666zM85.375 661.335l426.667 213.333 426.666-213.333v-170.666h-853.332v170.666zM512.042 618.669c11.315 0 22.17 4.493 30.17 12.496 8.003 8 12.496 18.854 12.496 30.17s-4.493 22.168-12.496 30.17c-8 8.001-18.854 12.497-30.17 12.497s-22.17-4.495-30.17-12.497c-8.003-8.002-12.496-18.854-12.496-30.17s4.493-22.17 12.496-30.17c8-8.003 18.854-12.496 30.17-12.496v0z" />
<glyph unicode="&#xe460;" glyph-name="p-hotel" data-tags="p-hotel" d="M725.376 149.334h85.331v341.331h-256v-341.331h85.334v256h85.334v-256zM128.042 149.334v639.999c0 11.316 4.495 22.168 12.497 30.17s18.854 12.497 30.17 12.497h597.333c11.315 0 22.17-4.495 30.17-12.497 8.003-8.002 12.496-18.854 12.496-30.17v-213.333h85.334v-426.666h42.666v-85.334h-853.332v85.334h42.667zM298.708 490.666v-85.331h85.333v85.331h-85.333zM298.708 320v-85.334h85.333v85.334h-85.333zM298.708 661.333v-85.333h85.333v85.333h-85.333z" />
<glyph unicode="&#xe461;" glyph-name="bullet-2" data-tags="bullet-2" horiz-adv-x="1103" d="M492.301 743.492c0 69.98-33.593 134.692-89.85 173.108l-63.554 43.4-63.536-43.402c-56.277-38.416-89.87-103.128-89.87-173.108v-68.978h306.81v68.98zM496.218 614.423h-314.639c-19.629-13.46-32.511-35.812-32.511-61.068v-366.322h36.426v-64.129h306.81v64.129h36.425v366.322c0 25.257-12.861 47.608-32.511 61.068zM149.068 62.811h379.66v-126.826h-379.66v126.826zM936.054 743.492c0 69.98-33.595 134.692-89.876 173.108l-63.532 43.4-63.556-43.402c-56.258-38.416-89.85-103.128-89.85-173.108v-68.978h306.814v68.98zM939.969 614.423h-314.64c-19.65-13.46-32.512-35.812-32.512-61.068v-366.322h36.426v-64.129h306.811v64.129h36.423v366.322c0 25.257-12.887 47.608-32.508 61.068zM592.817 62.811h379.66v-126.826h-379.66v126.826z" />
<glyph unicode="&#xe900;" glyph-name="p-tent" data-tags="tent" d="M1022.802 692.816c-0.188 0.512-0.405 1.013-0.649 1.502-0.706 1.457-1.613 2.807-2.697 4.011-0.239 0.256-0.41 0.563-0.666 0.802-1.186 1.182-2.543 2.178-4.028 2.953l-494.929 255.998c-4.909 2.558-10.758 2.558-15.667 0l-494.929-255.998c-1.487-0.781-2.85-1.775-4.045-2.953-0.239-0.239-0.393-0.512-0.614-0.768-1.109-1.21-2.029-2.579-2.731-4.062-0.243-0.482-0.461-0.977-0.649-1.485-0.753-1.873-1.158-3.87-1.195-5.888v-733.861c0-9.425 7.642-17.067 17.067-17.067h68.266c9.425 0 17.067 7.642 17.067 17.067v135.628l50.141 467.93c41.527 1.687 81.175 17.766 112.144 45.482 32.781-29.425 75.261-45.728 119.312-45.789 44.098 0.038 86.632 16.335 119.466 45.772 32.819-29.563 75.432-45.909 119.602-45.875 2.321 0 4.676 0 7.031 0.154 45.992 1.737 89.527 21.197 121.497 54.306 32.975-29.755 75.095-47.402 119.432-50.039l50.568-471.941v-135.628c0-9.425 7.642-17.067 17.067-17.067h68.266c9.425 0 17.067 7.642 17.067 17.067v733.861c-0.041 2.020-0.446 4.015-1.195 5.888zM512.001 923.709l424.786-219.714h-849.572l424.786 219.714zM68.374 91.409c-0.068-0.602-0.102-1.205-0.102-1.809v-119.466h-34.133v625.061c24.414-19.366 53.465-32.015 84.274-36.693l-50.039-467.094zM989.864-29.866h-34.133v119.466c0 0.604-0.034 1.207-0.102 1.809l-50.397 470.388c30.696 3.535 59.904 15.161 84.633 33.689v-625.352zM989.864 641.787c-25.63-29.602-62.717-46.799-101.87-47.24-47.168-1.734-92.682 17.5-124.313 52.531-3.311 3.866-8.228 5.978-13.312 5.717-5.067-0.171-9.794-2.586-12.902-6.588-49.107-63.078-140.050-74.402-203.126-25.295-6.502 5.062-12.559 10.669-18.108 16.761-6.351 6.965-17.143 7.464-24.111 1.114-0.388-0.354-0.759-0.725-1.114-1.114-27.439-30.024-66.231-47.136-106.905-47.155-40.678-0.192-79.507 16.966-106.751 47.172-6.351 6.965-17.143 7.464-24.111 1.114-0.388-0.354-0.759-0.725-1.114-1.114-27.452-30.112-66.312-47.276-107.058-47.291h-0.853c-41.004 0.041-80.010 17.717-107.075 48.52l-3.004 3.294v27.648h955.724v-28.074z" />
<glyph unicode="&#xedf2;" glyph-name="p-house" data-tags="p-house" d="M139.238 17.255c0 0-0.91-22.891 21.45-22.891 27.818 0 258.122 0.303 258.122 0.303l0.379 211.509c0 0-3.639 34.866 30.205 34.866h107.1c40.019 0 37.556-34.866 37.556-34.866l-0.456-210.827c0 0 218.369 0 252.665 0 28.385 0 27.098 28.499 27.098 28.499v389.932l-356.089 316.75-378.032-316.75v-396.525zM0 443.262c0 0 32.1-59.158 102.097 0l418.315 353.892 392.206-351.693c81.025-58.439 111.382 0 111.382 0l-503.588 456.177-520.412-458.376zM903.106 797.987h-100.884l0.417-122.334 100.468-85.233v207.567z" />
</font>
</defs>
</svg>
